#TITLE:He Said , She Said;
#SUBTITLE:;
#ARTIST:Ashley Tisdale;
#TITLETRANSLIT:He Said , She Said;
#SUBTITLETRANSLIT:;
#ARTISTTRANSLIT:Ashley Tisdale;
#CREDIT:;
#BANNER:He Said , She Said-bn.png;
#BACKGROUND:He Said , She Said-bg.png;
#LYRICSPATH:;
#CDTITLE:;
#MUSIC:He Said , She Said.mp3;
#OFFSET:-0.063;
#SAMPLESTART:37.730;
#SAMPLELENGTH:20.000;
#SELECTABLE:YES;
#BPMS:0.000=115.000,39.250=230.000,41.250=115.000,140.250=230.000,142.250=115.000,214.250=57.500,230.250=115.000;
#STOPS:;
#BGCHANGES:;
// cache tags:
#FIRSTBEAT:6.750;
#LASTBEAT:340.250;
#SONGFILENAME:Songs/Music V.I.P ^_^/He Said , She Said/He Said , She Said.sm;
#HASMUSIC:1;
#HASBANNER:1;
#MUSICLENGTH:188.246;
// end cache tags

//---------------dance-single - ----------------
#NOTES:
     dance-single:
     :
     Hard:
     12:
     1.000,1.000,1.000,0.345,1.000,948.000,231.000,65.000,0.000,171.000:
0000
0000
0000
0000
,
0000
0000
0000
0000
0000
0000
0000
0000
0000
0000
0000
0200
0000
0000
0000
0000
,
0300
0110
0000
0001
0010
0100
0010
0001
0010
0001
0100
1000
0100
0010
0001
0010
,
0000
1111
0000
0100
0010
0100
1000
0100
0010
0001
0100
0010
0100
1000
0100
0010
,
0000
1111
0000
0010
0100
0010
0001
0010
0100
1000
0100
0010
1000
0100
0010
0001
,
0000
0100
0010
0100
0010
1000
0100
1000
0100
0010
0001
0010
0001
0010
0000
0100
,
0000
1111
0000
0100
0010
0100
1000
0001
0001
0010
0100
0100
0010
0001
1000
0100
,
0000
1111
0000
0010
0100
0001
0010
0100
0100
1000
0010
0010
0001
0100
0010
0001
,
0000
1111
0000
0010
0001
0010
0100
0010
0010
0100
1000
1000
0010
0100
1000
0100
,
0010
1001
0100
1000
0010
0100
1000
0100
0010
0100
0010
0001
0100
0020
0000
0000
,
0000
0000
0000
0030
0000
1111
0000
0001
0100
0010
1000
0010
0100
0001
0100
0010
,
1000
0010
0100
0001
0000
1111
0000
0001
0010
1000
0100
0010
1000
0001
0100
0010
,
0001
0100
0010
1000
0000
1111
0000
0100
0010
0100
1000
0010
0100
0001
1000
0010
,
0001
0100
0001
0010
0000
1111
0000
0010
0010
0010
0100
1000
0100
0010
0100
0010
,
0001
0010
0100
1000
0000
1112
0000
1000
0100
0010
0100
0010
1000
0100
1000
0010
,
0100
0010
1000
0100
0003
1121
0000
1000
0100
0001
1000
0100
1000
0001
0100
1000
,
0100
1000
0001
0100
0030
1211
0000
0001
0010
0001
1000
0010
0001
1000
0001
0010
,
1000
0001
0010
0001
0300
2111
0000
0100
0100
0010
0010
0001
0001
0010
0010
0100
,
0100
0001
0010
0101
3000
1121
0000
0100
0000
1000
0000
0001
0000
0100
0000
1001
,
0000
0100
0000
0101
0000
1132
0000
0010
0000
1000
0000
0100
0000
0010
0000
1100
,
0000
0010
0000
0110
0000
1213
0000
0001
0000
0010
0000
0001
0000
1000
0000
1010
,
0000
0001
0000
1000
0000
2321
0000
0000
0000
3232
0000
0000
0000
2323
0000
0000
,
0000
3232
0000
0000
0000
2313
0000
0100
0000
0010
0000
0001
0000
0100
0000
0101
,
0000
0010
0000
0110
0000
3121
0000
1000
0000
0001
0000
0100
0000
1000
0000
0101
,
0000
0100
0000
1001
0000
1231
0000
0001
0000
1000
0000
0010
0000
0001
0000
0011
,
0000
0000
0000
0010
0000
0000
0000
0000
0000
1001
0000
0000
0000
0000
0000
1311
0000
0000
0000
0000
0000
0100
0000
0000
0000
0000
0000
1000
0000
0000
0000
0000
0000
0001
0000
0010
0000
0100
0000
1000
0000
0000
0000
0000
0000
0110
0000
0000
,
0000
1000
0000
0101
0000
1111
0100
0010
0100
1111
0010
0100
0010
1111
0100
0010
,
0100
1111
0010
0100
0010
1111
0000
1000
0001
0100
0010
0100
1000
0010
0100
1010
,
0001
0100
0010
1100
0000
1111
0000
0001
0010
0100
1000
0100
0010
0001
0100
0011
,
0100
1000
0001
0110
0000
1111
0000
0010
0100
0010
1000
0100
1000
0001
0010
0101
,
1000
0100
0010
1001
0000
1111
0000
0001
0010
0100
0010
0100
1000
0001
0010
1100
,
0010
0100
1000
0101
0000
1111
0000
0100
0001
0010
0100
1000
1000
0010
0100
0101
,
1000
0100
0010
1001
0000
1111
0000
1000
0100
0010
0100
0010
0010
0100
1000
1001
,
0010
0001
0010
1100
0000
1111
0000
0001
0010
0100
1000
0010
0010
1000
0100
0110
,
1000
0001
0010
0101
0000
1111
0000
0001
0010
0100
1000
0001
0001
0010
0100
1100
,
0010
0200
0000
0000
0000
0000
0000
0000
0300
1111
0000
1000
0100
0010
0100
0010
,
0001
0010
0100
1001
0010
0100
0010
0101
0000
1111
0000
0001
0010
0100
0001
1000
,
0010
0100
0001
1010
0100
1000
0010
1100
0000
1111
0000
0001
0010
0100
0010
0001
,
1000
0100
0010
1001
0100
0010
0100
1010
0000
1111
0000
0001
0001
0010
0010
0100
,
0100
0010
0010
1100
0100
1000
1000
0110
0000
1111
0000
0100
0010
0100
0001
0010
,
0100
1000
0001
0110
0001
1000
0100
0011
0000
2111
0000
0001
0100
0010
0100
0001
,
0010
0100
0001
0110
0001
0010
0100
0011
3000
1121
0000
0100
1000
0001
0100
1000
,
0001
0100
0001
1100
0001
1000
0100
1001
0030
1211
0000
0001
0001
0010
0010
1000
,
1000
0001
0001
1010
1000
0010
0010
1001
0300
1112
0000
0100
0000
0010
0000
1000
,
0000
0100
0000
0110
0000
0100
0000
1010
0000
1123
0000
0001
0000
0100
0000
1000
,
0000
0001
0000
0101
0000
0001
0000
1100
0000
1231
0000
0010
0000
0001
0000
1000
,
0000
0001
0000
0011
0000
0010
0000
1001
0000
1322
0000
0000
0000
2233
0000
0000
,
0000
3322
0000
0000
0000
2233
0000
0000
0000
3312
0000
1000
0000
0100
0000
0010
,
0000
1000
0000
1100
0000
0100
0000
1010
0000
1123
0000
0001
0000
0100
0000
1000
,
0000
0001
0000
1100
0000
0001
0000
1001
0000
1231
0000
0010
0000
0001
0000
1000
,
0000
0000
0000
0001
0000
0000
0000
0000
0000
1001
0000
0000
0000
0000
0000
0010
0000
0000
0000
0000
0000
1010
0000
0000
0000
0000
0000
1311
0000
0000
0000
0000
0000
0100
0000
0000
0000
0000
0000
0010
0000
0000
0000
0000
0000
1000
0000
0100
,
0000
0010
0000
0001
0000
0000
0000
0000
0000
1100
0000
0000
0000
0000
0000
0010
0000
0000
0000
0000
0000
0101
0000
0000
0000
0000
0000
1111
0000
0000
0001
0000
0000
1000
0000
0000
0001
0000
0000
1111
0000
0000
1000
0000
0000
0001
0000
0000
,
1000
1111
0001
1000
0001
1111
1000
0001
1000
1111
0000
1011
0000
1011
0000
1011
,
0000
1011
0000
1011
0000
1110
0000
0000
0000
2101
0000
0010
0000
0000
0110
0000
,
0101
3211
0000
0001
0000
0000
0011
0000
1001
1321
0000
0001
0000
0000
1100
0000
,
0101
1132
0000
0010
0000
0000
1010
0000
0110
2113
0000
0001
0000
0000
0011
0000
,
0101
3121
0000
1000
0000
0000
0101
0000
1001
1132
0000
0010
0000
0000
1100
0000
,
0110
2113
0000
0100
0000
0000
0011
0000
0110
3111
0000
1000
0010
0100
0001
0010
,
0010
0001
0100
0100
1000
0100
0010
0001
0000
1111
0000
0001
0010
0100
1000
0100
,
0100
0001
0010
0010
1000
0100
0010
0001
0000
1111
0000
1000
0100
0001
0010
0001
,
0001
1000
0100
0100
0010
0100
1000
0100
0000
1111
0000
0011
0011
0110
0110
1100
,
1100
1001
1001
0110
0110
1010
1010
1001
0000
2111
0000
0100
0001
0010
0100
0010
,
0001
0100
0001
0110
0001
0010
0100
0011
3000
1121
0000
1000
0001
0100
1000
0001
,
1000
0001
1000
0101
1000
0100
0001
1100
0030
1112
0000
0010
0100
1000
0010
0100
,
0010
1000
0100
1010
0100
0010
1000
0110
0003
1111
0000
1000
1000
0100
0100
0010
,
0010
0100
0100
1000
1000
0001
0001
0010
0000
1111
1000
0010
1000
1111
0010
1000
,
0010
1111
1000
0010
1000
1111
0010
1100
0010
1112
0000
0010
0000
1000
0000
0100
,
0000
0010
0000
1010
0000
0010
0000
1100
0000
2113
0000
0001
0000
0010
0000
0100
,
0000
0001
0000
0110
0000
0010
0000
0101
0000
3121
0000
0100
0000
1000
0000
0001
,
0000
0100
0000
1001
0000
0001
0000
1100
0000
2132
0000
0000
0000
3223
0000
0000
,
0000
2332
0000
0000
0000
3223
0000
0000
0000
2331
0000
0010
0000
0100
0000
0001
,
0000
0010
0000
0101
0000
0010
0000
0011
0000
3211
0000
0001
0000
0010
0000
1000
,
0000
0010
0000
1001
0000
1000
0000
0011
0000
1312
0000
0100
0000
1000
0000
0010
,
0000
0000
0000
0100
0000
0000
0000
0000
0000
1010
0000
0000
0000
0000
0000
1000
0000
0000
0000
0000
0000
0110
0000
0000
0000
0000
0000
1113
0000
0000
0000
0000
0000
0001
0000
0000
0000
0000
0000
0100
0000
0000
0000
0000
0000
0001
0000
0010
,
0000
0100
0000
1000
0000
0000
0000
0000
0000
0001
0000
0000
0000
0000
0000
0100
0000
0000
0000
0000
0000
0010
0000
0000
0000
0000
0000
1111
0000
0000
0001
0000
0000
0100
0000
0000
0001
0000
0000
1111
0000
0000
0100
0000
0000
0001
0000
0000
,
0100
1111
0001
0100
0001
1111
0100
0001
0100
1111
0001
0010
0100
1000
0100
0010
,
0001
1010
0100
1000
0100
0010
0001
0010
0000
1111
0000
0100
0000
0010
0000
1000
,
1000
0000
0010
0010
0000
1001
0000
0011
0000
1100
0000
0001
0000
0010
0000
0100
,
0100
0000
1000
1000
0000
0001
0000
0110
0000
1001
0000
0010
0000
1000
0000
0001
,
0001
0000
0010
0010
0000
0100
0000
0101
0000
1010
0000
0001
0001
0010
0010
1000
,
1000
0010
0010
0001
0001
0100
0100
1010
0000
1111
0000
0001
0000
0010
0000
0100
,
0100
0000
0001
1001
0000
0010
0000
1100
0000
1111
0000
0001
0000
0100
0000
1000
,
1000
0000
0100
0101
0000
0010
0000
1010
0000
1111
0000
1000
0000
0100
0000
0010
,
0010
0000
0001
0011
0000
0100
0000
0101
0000
1111
0000
1000
1000
0100
0100
0010
,
0010
0001
0001
0010
0010
0100
0100
1000
1000
0200
0020
0000
0000
0000
0000
0000
,
0000
0330
0000
0000
0000
0000
0000
0000
0000
0000
0000
0000
0000
0000
0000
0000
;
